May 22, 2010

Robin Hood (2010)

May 22, 2010


Ripper ...........: IMAGiNE
Video Codec.......: XVID
Audio Codec.......:MP3
Audio Bitrate.....:128
Runtime.......:2h 11mn
Language..........:ENGLISH
Resolution...... 640 x 272


Video
ID : 0
Format : MPEG-4 Visual
Format profile : Advanced Simple@L5
Format settings, BVOP : Yes
Format settings, QPel : No
Format settings, GMC : No warppoints
Format settings, Matrix : Default (MPEG)
Muxing mode : Packed bitstream
Codec ID : XVID
Codec ID/Hint : XviD
Duration : 2h 11mn
Bit rate : 1 356 Kbps
Width : 640 pixels
Height : 272 pixels
Display aspect ratio : 2.35
Frame rate : 25.000 fps
Resolution : 24 bits
Colorimetry : 4:2:0
Scan type : Progressive
Bits/(Pixel*Frame) : 0.312
Stream size : 1.24 GiB (91%)
Writing library : XviD 1.2.1 (UTC 2008-12-04)

Audio
ID : 1
Format : MPEG Audio
Format version : Version 1
Format profile : Layer 3
Codec ID : 55
Codec ID/Hint : MP3
Duration : 2h 11mn
Bit rate mode : Constant
Bit rate : 128 Kbps
Channel(s) : 2 channels
Sampling rate : 48.0 KHz
Resolution : 16 bits
Stream size : 120 MiB (9%)
Alignment : Split accross interleaves
Interleave, duration : 40 ms (1.00 video frame)
Interleave, preload duration : 500 ms


DOWNLOAD :
RS :
http://rapidshare.com/files/389893503/WarezHaven.Org___HR.Ash.part1.rar.html
http://rapidshare.com/files/389893373/WarezHaven.Org___HR.Ash.part2.rar.html
http://rapidshare.com/files/389893997/WarezHaven.Org___HR.Ash.part3.rar.html
http://rapidshare.com/files/389893945/WarezHaven.Org___HR.Ash.part4.rar.html
http://rapidshare.com/files/389894516/WarezHaven.Org___HR.Ash.part5.rar.html
http://rapidshare.com/files/389894436/WarezHaven.Org___HR.Ash.part6.rar.html
http://rapidshare.com/files/389894998/WarezHaven.Org___HR.Ash.part7.rar.html
http://rapidshare.com/files/389894614/WarezHaven.Org___HR.Ash.part8.rar.html

HF :
http://hotfile.com/dl/43951229/e9a1e88/WarezHaven.Org___HR.Ash.part1.rar.html
http://hotfile.com/dl/43951222/43535ec/WarezHaven.Org___HR.Ash.part2.rar.html
http://hotfile.com/dl/43951458/a7d1757/WarezHaven.Org___HR.Ash.part3.rar.html
http://hotfile.com/dl/43951414/ddebf51/WarezHaven.Org___HR.Ash.part4.rar.html
http://hotfile.com/dl/43951652/6c44460/WarezHaven.Org___HR.Ash.part5.rar.html
http://hotfile.com/dl/43951693/b370fdd/WarezHaven.Org___HR.Ash.part6.rar.html
http://hotfile.com/dl/43951901/98bc6fd/WarezHaven.Org___HR.Ash.part7.rar.html
http://hotfile.com/dl/43951774/6b84549/WarezHaven.Org___HR.Ash.part8.rar.html

PASSWORD :
NOTHING ADDED, ENJOY ;)
 

There was an error in this gadget
There was an error in this gadget
There was an error in this gadget